<?xml version="1.0" encoding="UTF-8" standalone="no"?>
<svg
   version="1.1"
   width="1719.3282"
   height="516.42798"
   viewBox="0 0 1719.3283 516.42798"
   enable-background="new 0 0 320 527"
   id="svg130"
   sodipodi:docname="Z80_ctc.svg"
   inkscape:version="1.1.1 (3bf5ae0d25, 2021-09-20)"
   xmlns:inkscape="http://www.inkscape.org/namespaces/inkscape"
   xmlns:sodipodi="http://sodipodi.sourceforge.net/DTD/sodipodi-0.dtd"
   xmlns="http://www.w3.org/2000/svg"
   xmlns:svg="http://www.w3.org/2000/svg">
  <sodipodi:namedview
     id="namedview132"
     pagecolor="#ffffff"
     bordercolor="#666666"
     borderopacity="1.0"
     inkscape:pageshadow="2"
     inkscape:pageopacity="0.0"
     inkscape:pagecheckerboard="0"
     showgrid="false"
     inkscape:snap-global="false"
     inkscape:zoom="0.50060114"
     inkscape:cx="734.11739"
     inkscape:cy="291.64936"
     inkscape:window-width="1920"
     inkscape:window-height="1018"
     inkscape:window-x="-6"
     inkscape:window-y="-6"
     inkscape:window-maximized="1"
     inkscape:current-layer="svg130"
     fit-margin-top="0"
     fit-margin-left="0"
     fit-margin-right="0"
     fit-margin-bottom="0" />
  <font
     horiz-adv-x="1000"
     id="font4"
     horiz-origin-x="0"
     horiz-origin-y="0"
     vert-origin-x="512"
     vert-origin-y="768"
     vert-adv-y="1024">
    <!-- Copyright 1987, 1988, 1990, 1991, 1995, 1998, 2001 , 2002Adobe Systems Incorporated. All Rights Reserved.  -->
    <font-face
       font-family="LetterGothicStd-Bold"
       units-per-em="1000"
       underline-position="-100"
       underline-thickness="50"
       id="font-face6" />
    <missing-glyph
       horiz-adv-x="600"
       d="M50,0l500,0l0,700l-500,0M300,395l-170,255l340,0M330,350l170,255l0,-510M130,50l170,255l170,-255M100,605l170,-255l-170,-255z"
       id="missing-glyph8" />
    <glyph
       unicode="A"
       horiz-adv-x="600"
       d="M301,780l-254,-780l81,0l64,212l219,0l64,-212l81,0M301,566l92,-291l-183,0z"
       id="glyph10" />
    <glyph
       unicode="C"
       horiz-adv-x="600"
       d="M505,564C499,664 424,734 324,734C121,734 88,514 88,356C88,203 117,-14 315,-14C435,-14 506,59 514,176l-75,0C438,105 393,49 318,49C174,49 163,249 163,354C163,465 173,671 325,671C386,671 429,624 430,564z"
       id="glyph12" />
    <glyph
       unicode="D"
       horiz-adv-x="600"
       d="M112,0l172,0C441,0 527,83 527,360C527,641 434,720 295,720l-183,0M187,657l90,0C373,657 452,636 452,360C452,92 383,63 279,63l-92,0z"
       id="glyph14" />
    <glyph
       unicode="E"
       horiz-adv-x="600"
       d="M513,720l-374,0l0,-720l381,0l0,63l-306,0l0,275l215,0l0,63l-215,0l0,256l299,0z"
       id="glyph16" />
    <glyph
       unicode="I"
       horiz-adv-x="600"
       d="M435,720l-270,0l0,-63l97,0l0,-594l-97,0l0,-63l270,0l0,63l-98,0l0,594l98,0z"
       id="glyph18" />
    <glyph
       unicode="M"
       horiz-adv-x="600"
       d="M300,361l-151,359l-73,0l0,-720l75,0l0,546l2,2l147,-353l148,353l2,0l0,-548l75,0l0,720l-74,0z"
       id="glyph20" />
    <glyph
       unicode="N"
       horiz-adv-x="600"
       d="M115,0l75,0l0,572l2,2l236,-581l71,0l0,727l-75,0l0,-538l-3,0l-219,538l-87,0z"
       id="glyph22" />
    <glyph
       unicode="O"
       horiz-adv-x="600"
       d="M79,360C79,258 78,-14 300,-14C528,-14 521,264 521,360C521,494 510,734 300,734C179,734 79,661 79,360M300,49C150,49 154,278 154,360C154,402 140,671 300,671C456,671 446,426 446,360C446,99 375,49 300,49z"
       id="glyph24" />
    <glyph
       unicode="Q"
       horiz-adv-x="600"
       d="M300,-14C333,-14 367,-6 396,10l50,-70l92,0l-88,114C512,124 522,227 522,360C522,432 536,734 300,734C179,734 78,662 78,360C78,268 72,-14 300,-14M153,360C153,390 136,671 300,671C376,671 447,616 447,360C447,124 388,49 300,49C225,49 153,104 153,360z"
       id="glyph26" />
    <glyph
       unicode="R"
       horiz-adv-x="600"
       d="M131,0l75,0l0,298C242,299 278,299 314,300l175,-300l91,0l-194,317C486,374 514,442 514,516C514,558 498,720 318,720l-187,0M206,362l0,295l74,0C399,657 439,616 439,520C439,414 379,362 277,362z"
       id="glyph28" />
    <glyph
       unicode="S"
       horiz-adv-x="600"
       d="M502,644C448,694 379,734 304,734C196,734 110,669 110,556C110,466 172,417 243,375l65,-39C435,260 439,240 439,182C439,105 377,49 302,49C233,49 177,93 142,149l-58,-46C140,31 209,-14 302,-14C428,-14 514,63 514,192C514,276 478,314 346,395l-57,35C192,489 185,523 185,561C185,627 237,671 301,671C363,671 413,629 457,590z"
       id="glyph30" />
    <glyph
       unicode="T"
       horiz-adv-x="600"
       d="M541,720l-481,0l0,-63l201,0l0,-657l75,0l0,657l205,0z"
       id="glyph32" />
    <glyph
       unicode="U"
       horiz-adv-x="600"
       d="M424,720l0,-522C424,117 392,49 300,49C242,49 175,85 175,189l0,531l-75,0l0,-491C100,30 222,-14 300,-14C397,-14 499,53 499,189l0,531z"
       id="glyph34" />
    <glyph
       unicode="V"
       horiz-adv-x="600"
       d="M297,109l-2,0l-130,611l-82,0l160,-727l103,0l163,727l-83,0z"
       id="glyph36" />
    <glyph
       unicode="W"
       horiz-adv-x="600"
       d="M297,519l-114,-361l-2,0l-38,562l-81,0l60,-727l83,0l92,312l91,-312l86,0l55,727l-81,0l-36,-562l-2,0z"
       id="glyph38" />
    <glyph
       unicode="Y"
       horiz-adv-x="600"
       d="M282,394l-139,326l-83,0l184,-416l0,-304l75,0l0,304l184,416l-83,0z"
       id="glyph40" />
    <glyph
       unicode="8"
       horiz-adv-x="600"
       d="M145,196C145,289 210,343 300,343C390,343 455,289 455,196C455,102 391,49 300,49C209,49 145,102 145,196M430,539C430,458 381,406 300,406C225,406 169,454 169,531C169,615 214,671 300,671C382,671 430,619 430,539M422,377C477,424 505,463 505,538C505,661 419,734 300,734C187,734 94,663 94,545C94,466 120,427 178,377C105,349 70,270 70,196C70,86 140,-14 300,-14C452,-14 530,79 530,196C530,270 495,349 422,377z"
       id="glyph42" />
    <glyph
       unicode="5"
       horiz-adv-x="600"
       d="M460,720l-322,0l-30,-399l76,-15C212,352 250,388 307,388C362,388 430,336 430,215C430,139 385,49 299,49C236,49 185,95 158,149l-58,-43C145,38 208,-14 294,-14C426,-14 505,97 505,221C505,365 416,451 305,451C259,451 219,436 185,405l20,252l255,0z"
       id="glyph44" />
    <glyph
       unicode="4"
       horiz-adv-x="600"
       d="M423,734l-97,0l-265,-499l0,-49l287,0l0,-186l75,0l0,186l103,0l0,63l-103,0M348,249l-201,0l199,383l2,0z"
       id="glyph46" />
    <glyph
       unicode="9"
       horiz-adv-x="600"
       d="M163,486C163,572 200,671 301,671C388,671 425,578 425,504C425,415 367,324 286,324C196,324 163,408 163,486M97,30C137,5 184,-14 232,-14C375,-14 505,131 505,414C505,553 471,734 296,734C159,734 88,608 88,485C88,373 153,261 277,261C344,261 386,286 430,335C424,231 361,49 235,49C199,49 161,72 133,92z"
       id="glyph48" />
    <glyph
       unicode="1"
       horiz-adv-x="600"
       d="M341,742l-216,-68l0,-57l141,43l0,-597l-135,0l0,-63l339,0l0,63l-129,0z"
       id="glyph50" />
    <glyph
       unicode="("
       horiz-adv-x="600"
       d="M411,-29C293,56 250,192 250,332C250,472 293,608 411,692l-36,50C238,653 175,490 175,332C175,174 238,9 375,-78z"
       id="glyph52" />
    <glyph
       unicode=")"
       horiz-adv-x="600"
       d="M189,692C307,608 350,471 350,332C350,192 307,55 189,-29l36,-49C362,10 425,174 425,332C425,490 362,653 225,742z"
       id="glyph54" />
    <glyph
       unicode="."
       horiz-adv-x="600"
       d="M220,64C220,20 257,-14 301,-14C344,-14 381,20 381,64C381,108 344,141 301,141C258,141 220,108 220,64z"
       id="glyph56" />
    <glyph
       unicode="7"
       horiz-adv-x="600"
       d="M93,720l0,-63l306,0l-264,-657l81,0l281,720z"
       id="glyph58" />
    <glyph
       unicode="6"
       horiz-adv-x="600"
       d="M436,234C436,148 400,49 299,49C211,49 175,142 175,217C175,304 232,396 313,396C404,396 436,312 436,234M503,690C463,715 415,734 368,734C234,734 95,604 95,306C95,167 129,-14 304,-14C441,-14 511,112 511,235C511,347 447,459 323,459C256,459 213,434 170,386C175,489 239,671 365,671C405,671 436,649 467,628z"
       id="glyph60" />
    <glyph
       unicode="/"
       horiz-adv-x="600"
       d="M187,-27l301,774l-75,0l-301,-774z"
       id="glyph62" />
    <glyph
       unicode="3"
       horiz-adv-x="600"
       d="M248,354C354,364 438,307 438,192C438,103 375,49 288,49C210,49 166,94 136,162l-66,-39C120,40 184,-14 285,-14C415,-14 513,69 513,202C513,291 465,356 385,391C441,426 480,478 480,546C480,652 394,734 288,734C196,734 122,684 80,603l63,-36C167,620 218,671 280,671C347,671 405,623 405,552C405,466 329,413 248,417z"
       id="glyph64" />
    <glyph
       unicode="2"
       horiz-adv-x="600"
       d="M175,63C179,155 223,213 288,272l52,47C413,385 501,452 501,560C501,669 426,734 320,734C191,734 121,643 114,521l75,0C193,599 231,671 319,671C387,671 426,626 426,559C426,478 335,405 278,357C165,260 100,190 100,32l0,-32l403,0l0,63z"
       id="glyph66" />
    <glyph
       unicode="0"
       horiz-adv-x="600"
       d="M509,360C509,464 508,734 300,734C74,734 91,402 91,360C91,276 90,-14 300,-14C512,-14 509,260 509,360M166,360C166,428 158,671 300,671C372,671 434,615 434,360C434,96 366,49 300,49C164,49 166,268 166,360z"
       id="glyph68" />
  </font>
  <font
     horiz-adv-x="1000"
     id="font70"
     horiz-origin-x="0"
     horiz-origin-y="0"
     vert-origin-x="512"
     vert-origin-y="768"
     vert-adv-y="1024">
    <!-- Copyright 1987, 1990, 1991, 1995, 1998, 2001 , 2002Adobe Systems Incorporated. All Rights Reserved.  -->
    <font-face
       font-family="LetterGothicStd"
       units-per-em="1000"
       underline-position="-100"
       underline-thickness="50"
       id="font-face72" />
    <missing-glyph
       horiz-adv-x="600"
       d="M50,0l500,0l0,700l-500,0M300,395l-170,255l340,0M330,350l170,255l0,-510M130,50l170,255l170,-255M100,605l170,-255l-170,-255z"
       id="missing-glyph74" />
    <glyph
       unicode="5"
       horiz-adv-x="600"
       d="M449,720l-301,0l-29,-388l56,-11C204,368 247,403 306,403C359,403 447,359 447,215C447,115 388,29 299,29C236,29 180,71 150,124l-35,-27C157,36 215,-11 293,-11C422,-11 494,100 494,219C494,366 405,443 305,443C247,443 199,414 165,368l24,312l260,0z"
       id="glyph76" />
    <glyph
       unicode="6"
       horiz-adv-x="600"
       d="M453,230C453,133 411,29 298,29C200,29 158,127 158,211C158,343 249,410 314,410C415,410 453,318 453,230M488,697C454,719 409,734 369,734C238,734 105,598 105,304C105,60 201,-11 297,-11C435,-11 500,106 500,230C500,337 443,450 323,450C243,450 190,404 152,339C145,463 213,694 367,694C404,694 436,678 465,657z"
       id="glyph78" />
    <glyph
       unicode="2"
       horiz-adv-x="600"
       d="M157,40C159,142 182,194 332,328C404,392 490,461 490,566C490,670 424,734 320,734C202,734 136,652 127,540l47,0C180,624 228,694 319,694C395,694 443,644 443,569C443,476 350,403 286,347C136,216 110,157 110,0l383,0l0,40z"
       id="glyph80" />
    <glyph
       unicode="0"
       horiz-adv-x="600"
       d="M498,360C498,436 496,527 471,599C444,676 387,734 300,734C209,734 152,672 126,591C104,524 102,431 102,360C102,284 104,192 129,121C156,44 214,-14 300,-14C390,-14 448,48 474,129C496,195 498,290 498,360M451,360C451,301 449,221 436,165C419,97 379,25 300,25C226,25 185,90 168,153C150,215 149,296 149,360C149,419 151,498 164,555C181,623 221,695 300,695C374,695 415,630 432,566C450,505 451,424 451,360z"
       id="glyph82" />
  </font>
</svg>
